#TITLE:花火;
#SUBTITLE:(lange remix);
#ARTIST:浜崎あゆみ;
#TITLETRANSLIT:Hanabi;
#SUBTITLETRANSLIT:;
#ARTISTTRANSLIT:Ayumi Hamasaki;
#CREDIT:;
#BANNER:hanabi-banner.png;
#BACKGROUND:hanabi-bg.png;
#LYRICSPATH:;
#CDTITLE:cdtitle.png;
#MUSIC:Ayumi Hamasaki - Ayu Trance 3 - 12 - Hanabi (Lange Remix).mp3;
#OFFSET:-2.020;
#SAMPLESTART:41.540;
#SAMPLELENGTH:12.000;
#SELECTABLE:YES;
#DISPLAYBPM:*;
#BPMS:0.000=139.000,484.000=151.860,486.000=226.720,488.000=324.739,490.000=415.558,491.000=507.977;
#STOPS:216.000=0.700
,282.500=0.900
,380.250=0.760
;
#BGCHANGES:;
// cache tags:
#FIRSTBEAT:2.000;
#LASTBEAT:491.250;
#SONGFILENAME:Songs/SS Ayu Style -Mini Pack-/Hanabilangemix(fixed)/hanabi.sm;
#HASMUSIC:1;
#HASBANNER:1;
#MUSICLENGTH:218.126;
// end cache tags

//---------------dance-single - ----------------
#NOTES:
     dance-single:
     :
     Hard:
     10:
     0.646,0.957,0.555,0.367,0.644,786.000,121.000,80.000,0.000,0.000:
0000
0000
0000
0000
0000
0000
0000
0000
0021
0000
0030
0000
0002
0000
0000
0003
,
0020
0000
0000
0000
0000
0000
0000
0000
0000
0000
0000
0030
0100
0000
0100
0000
,
0000
0000
0000
0000
0010
0001
0010
0001
0020
0000
0000
0000
0001
0000
0001
0000
,
0030
0000
0000
0000
0000
0011
0012
0000
,
0000
0000
0000
0000
0000
0000
0000
0000
0000
0000
0000
0000
0000
0003
0000
0000
,
0021
0000
0000
0030
0000
0000
0000
0000
0120
0000
0000
0000
0000
0000
0000
0030
,
0120
0000
0000
0000
0000
0000
0000
0030
1020
0000
0000
0030
1020
0000
0000
0000
,
0000
0000
0030
0000
0010
0001
0010
0002
0000
0000
0000
0000
0000
0000
0000
0000
,
0000
0003
0000
0000
0000
0000
0000
0000
2001
0000
3000
0000
2001
0000
0000
3000
,
0021
0000
0000
0000
0000
0000
0000
0000
0000
0030
0000
0000
0021
0030
1200
0000
,
0000
0000
0300
0000
0120
0000
0030
0000
0120
0000
0030
0000
0120
0030
0210
0000
,
0000
0000
0000
0000
,
0000
0000
0000
0000
0000
0000
0000
0000
0300
0000
0000
0000
1200
0000
0000
0300
,
1200
0000
0000
0300
0200
0000
0000
0300
,
0012
0000
0000
0000
0000
0000
0000
0003
1002
0000
0000
0003
0110
0000
0110
0000
,
0200
0000
0000
0000
,
0000
0000
0000
0000
0000
0000
0000
0000
0000
0300
0000
0000
0000
0000
0000
0000
,
0000
0000
0000
0000
0000
0000
0000
0000
0000
0000
0000
0001
0010
0001
0100
0000
,
0110
0110
0120
0030
0011
0011
0012
0003
,
0110
1100
1200
0300
0110
0010
0120
0030
,
1001
0100
1001
0000
0011
0010
1010
0000
,
0010
0100
0010
0100
0010
0000
0000
0000
0010
0100
0010
0100
0010
0000
0000
0000
,
0202
0000
0000
0303
0220
0000
0000
0330
,
0220
0000
0000
0330
0220
0000
0000
0330
,
0220
0000
0000
0000
0330
0000
0101
0101
,
0010
1000
0010
1000
0010
0000
0000
0000
0001
0010
0001
0010
0001
0000
0000
0000
,
0120
0000
0000
0000
0000
0000
0000
0030
1020
0000
0000
0000
0000
0000
0030
0000
,
0022
0000
0000
0000
0000
0000
0000
0033
0220
0000
0000
0000
0000
0000
0330
0000
,
0202
0000
0000
0000
0000
0303
0010
0001
,
0010
0001
0010
0001
0010
0000
0000
0000
0100
1000
0100
1000
0100
0000
0000
0000
,
0220
0000
0000
0330
0220
0000
0000
0330
,
2020
0000
0000
3030
0022
0000
0000
0033
,
2020
0000
0000
0000
0000
3030
0001
0010
,
0001
0010
0001
0010
0001
0000
0000
0000
0010
0100
0010
0100
0010
0000
0000
0000
,
0220
0000
0000
0330
0022
0000
0000
0033
,
0202
0000
0000
0303
2020
0000
0000
3030
,
2002
0000
0000
0000
0000
0000
0000
0000
0000
0000
3003
0000
0100
0010
0100
0010
,
0200
0000
0000
0000
0000
0000
0000
0000
0000
0000
0000
0000
0000
0000
0000
0300
,
0001
0010
0100
1000
0001
0010
0100
1000
0001
0010
0100
1000
0001
0010
0100
1000
,
0001
0010
0100
1000
0000
0000
0100
1000
0100
1000
0100
1000
0100
0000
0000
0000
,
1200
0000
0010
0300
1200
0000
0000
0000
0000
0000
0000
0300
0000
0000
0000
0000
,
0020
0000
0030
0000
0020
0030
0001
0000
0011
0000
0000
0000
0000
0000
0001
0010
,
0100
1000
0001
0010
0100
1000
0001
0010
0100
1000
0001
0010
0100
1000
0001
0010
,
0100
0000
1000
0000
0000
0000
0010
1000
0100
1000
0100
1000
0100
1000
0100
0000
,
0100
0000
1000
0000
0011
0000
0011
0000
0000
0000
0000
0000
0000
0000
0100
1000
,
0100
0000
0000
0000
0000
0000
0001
0010
0001
0000
0000
0000
0000
0000
1000
0100
,
0010
0001
1000
0100
0010
0001
1000
0100
0010
0001
1000
0100
0010
0001
1000
0100
,
0010
0001
1000
0100
0010
0001
0110
0000
0110
0000
0110
0000
1100
0000
0101
0000
,
1100
0000
0101
0000
0000
0000
0000
0000
0000
0000
0000
0000
0000
0000
0000
0001
,
0010
0001
1100
0000
0000
0000
1100
0000
0110
0000
0000
0000
0000
0000
0001
0010
,
0100
1000
0010
0100
0010
0100
0010
1000
0001
1000
0001
1000
0001
1000
0001
1000
,
0001
1001
1001
0000
0001
0010
0100
1000
,
0100
2000
0000
3000
0000
0000
0000
0000
,
1100
0000
0000
0000
0000
0000
1100
0000
0011
0000
0110
0000
0010
1000
0010
1000
,
0010
0000
0011
0000
0000
0000
0000
0000
0000
0000
0100
0000
1000
0001
0000
0100
,
0010
0000
1000
0100
0000
0010
0001
0000
0010
0000
0100
0000
1000
0001
0000
0100
,
0010
0000
1000
0001
0000
0010
0100
0000
1000
0000
0001
0000
1000
0010
0000
1000
,
0100
0000
1000
0001
0000
0100
0010
0000
1000
0000
0001
0000
0010
0001
0000
0010
,
0100
0000
1000
0001
0000
1000
0010
0000
0100
0000
0001
0000
0010
0001
0000
1000
,
0100
0000
1000
0001
0000
0100
0010
0000
1000
0000
0001
0000
0100
0010
0000
1000
,
0001
0000
0100
0010
0000
1000
0001
0000
0010
0000
0100
0000
1000
0001
0000
1000
,
0010
0000
0100
0001
0000
1000
0010
0000
1000
0000
1010
0000
0000
0101
0000
0000
,
1001
0000
1100
0000
0000
0011
0000
0000
1100
0000
0001
0000
1000
0010
0000
0100
,
0001
0000
0010
0100
0000
1000
0001
0000
1000
0000
0010
0000
0100
0001
0000
0010
,
0100
0000
0010
0001
0000
0010
0100
0000
0010
0000
0001
0000
1000
0010
0000
1000
,
0100
0000
1000
0010
0000
1000
0100
0000
1000
0000
0001
0000
0100
0010
0000
0100
,
0001
0000
0100
0010
0000
0100
0001
0000
1000
0000
0001
0000
0010
0100
0000
1000
,
0001
0000
0010
0100
0000
1000
0001
0000
0010
0000
0100
0000
1000
0010
0000
0100
,
0001
0000
1000
0010
0000
0100
0001
0000
1000
0000
0010
0000
0100
0001
0000
0010
,
0100
0000
1000
0001
0000
1000
0010
0000
0100
0000
1001
0000
0000
1100
0000
0000
,
0011
0000
1100
0000
0000
0011
0000
0000
1100
0000
0000
0000
1000
0001
1000
0000
,
0001
0100
0000
0000
0000
0110
0000
0000
,
0000
0110
0000
0000
0000
0110
0110
0000
,
0000
0210
0000
0000
0000
0000
0300
0110
,
1100
0000
1000
0100
1000
0100
1000
0000
0000
0000
1000
0100
1000
0100
1000
0000
,
0000
0110
0000
0000
0000
0110
0000
0000
,
0000
1100
0000
0000
0000
1100
0000
0000
,
2100
3000
1100
0000
0000
0000
0000
0000
0000
0000
0000
0000
0000
0000
1000
0000
,
1000
0000
0100
0010
0100
0010
0100
0000
0000
0000
0100
0010
0100
0010
0100
0000
,
1010
0000
0110
0000
,
0101
0000
1010
0000
,
1010
0000
0011
0000
,
0010
0000
0010
0000
0000
0100
0000
0000
0010
0000
0000
1000
0000
0000
1000
0000
,
1000
0110
0000
0000
1010
0000
0000
0000
,
0011
0000
0101
0000
,
0110
0000
0000
0000
0000
0000
0010
0010
,
0010
0000
0000
0000
,
1000
0100
0010
0001
1000
0100
0010
0001
1000
0100
0010
0001
1000
0100
0010
0001
,
1000
0100
0010
0001
0000
0000
0000
0000
0010
0000
0100
0000
0100
0000
0001
0000
,
0010
0100
1000
0000
0000
0000
0000
0000
,
0110
0010
0010
0010
0001
1000
0000
0000
,
1000
0100
0010
0001
1000
0100
0010
0001
1000
0100
0010
0001
1000
0100
0010
0001
,
1000
0100
0010
0001
0000
0000
0000
0000
0010
0000
0010
0000
0010
0000
0001
0000
,
1000
0100
0001
0000
0000
0000
0000
0000
,
0110
0000
0210
0000
0000
0000
0000
0300
0010
0000
0010
0000
0001
0100
0001
0100
,
0001
0100
0010
0000
0000
1000
0000
0000
0000
0000
0000
0001
0000
0010
0100
0000
,
1000
0001
0000
0010
0100
0000
1000
0001
0000
0010
0000
0100
0000
1000
0010
0000
,
0100
0001
0000
1000
0010
0000
0100
0001
0000
1000
0000
0100
0000
0010
0100
0000
,
0010
0100
0000
0010
0100
0000
0010
0100
0000
0010
0000
0001
0000
1000
0001
0000
,
1000
0001
0000
1000
0001
0000
1000
0001
0000
1000
0000
0010
0000
0100
0001
0000
,
0010
0100
0000
1000
0001
0000
0010
0100
0000
1000
0000
0010
0000
0100
0001
0000
,
0010
0100
0000
1000
0001
0000
0010
0100
0000
1000
0000
0010
0000
0100
0001
0000
,
0010
0100
0000
1000
0001
0000
1000
0010
0000
0100
0000
0001
0000
0000
0001
0000
,
0010
0000
0010
0000
0000
0010
0000
0000
0100
0000
0100
0000
0000
1000
0001
0000
,
1000
0100
0000
1000
0001
0000
1000
0100
0000
1000
0000
0010
0000
0100
0001
0000
,
0010
0100
0000
1000
0001
0000
0100
0010
0000
1000
0000
0001
0000
0100
0010
0000
,
0100
0001
0000
0100
0010
0000
1000
0001
0000
1000
0000
0010
0000
0001
1000
0000
,
0100
0010
0000
0001
1000
0000
0100
1000
0000
0010
0000
0100
0000
0000
0000
0000
,
0000
0001
0000
0000
0000
0020
0000
0000
,
0000
0000
0001
0000
0030
0000
0010
0000
0100
0000
0000
1000
0001
1000
0001
1000
,
0001
1000
0001
1000
0001
1000
0001
1000
0001
1000
0001
2000
0000
0000
0000
0000
,
0000
0000
3000
0000
0000
0000
0000
0000
0000
0000
0001
1000
0001
1000
0001
0000
,
0000
0000
0100
1000
0100
1000
0100
0000
0000
0000
0010
1000
0010
1000
0010
0000
,
0000
0000
0001
0100
0001
0100
0001
0000
0000
0000
0001
0010
0001
0010
0001
0000
,
0000
0000
0010
1000
0010
1000
0010
0000
0000
0000
0100
0010
0100
0010
0100
0000
,
0000
0000
0001
1000
0001
1000
0001
0000
0000
0000
0100
1000
0100
1000
0100
0000
,
0000
0000
0001
0010
0001
0010
0001
0000
0000
0000
1000
0100
1000
0100
1000
0000
,
0000
0000
0100
0001
0100
0001
0100
0000
0000
0000
0001
1000
0001
1000
0001
0000
,
0000
0000
0100
0010
0100
0010
0100
0000
0000
0000
1000
0010
1000
0010
1000
0000
,
0000
0000
0001
0100
0001
0100
0001
0000
0010
0000
0200
0000
0000
0000
0000
0000
,
0000
0000
0000
0000
,
0000
0000
0000
0000
,
0000
0000
0000
0000
0000
0000
0000
0000
0000
0000
0000
0000
0000
0300
0000
0000
;
